Skip to main content

Camper Van Beethoven Live at World Cafe Live on 2012-01-13




01. Waka
02. Summer Days
03. Eye Of Fatima
04. All Her Favorite Fruit
05. Sweethearts
06. L'Aguardiente
07. You Got To Roll
08. Cattle (Reversed)
09. When I Win The Lottery
10. Take The Skinheads Bowling
11. R 'n R Uzbekistan
12. Too High
13. She Divines
14. Pictures Of Matchstick men
15. Opi Rides Again - Club Med Sucks


Collection CamperVanBeethoven
Band/Artist Camper Van Beethoven
Venue World Cafe Live
Location Philadelphia, PA USA

Source AKG C568EB Hybrid Shotguns @ 48 volts > Monster Studio Grade XLR > Zoom H4: 48khz / 24 bit
Lineage Mixed via Audacity 1.3 BETA > FLAC: 48/24: 8x
Taped by Barry Shoop
Transferred by Barry Shoop

Notes

***24-bit /48kHz high-resolution recording, NOT for direct CD burning without conversion***

Cracker set is here: http://archive.org/details/Cracker2012-01-13

recorded by Barry Shoop, files renamed and fingerprints generated by morst

SHNTOOL LEN:
length expanded size cdr WAVE problems fmt ratio filename
7:11.000 124128044 B cxx -- ---xx flac 0.7417 CVB2012-01-13t01.flac
5:47.000 99936044 B cxx -- ---xx flac 0.7279 CVB2012-01-13t02.flac
5:19.000 91872044 B cxx -- ---xx flac 0.7551 CVB2012-01-13t03.flac
5:18.000 91584044 B cxx -- ---xx flac 0.7118 CVB2012-01-13t04.flac
4:45.000 82080044 B cxx -- ---xx flac 0.7312 CVB2012-01-13t05.flac
5:33.000 95904044 B cxx -- ---xx flac 0.6726 CVB2012-01-13t06.flac
4:10.000 72000044 B cxx -- ---xx flac 0.6898 CVB2012-01-13t07.flac
2:52.000 49536044 B cxx -- ---xx flac 0.7501 CVB2012-01-13t08.flac
3:39.000 63072044 B cxx -- ---xx flac 0.7348 CVB2012-01-13t09.flac
2:30.000 43200044 B cxx -- ---xx flac 0.7796 CVB2012-01-13t10.flac
1:22.000 23616044 B cxx -- ---xx flac 0.7415 CVB2012-01-13t11.flac
5:45.000 99360044 B cxx -- ---xx flac 0.7367 CVB2012-01-13t12.flac
3:51.000 66528044 B cxx -- ---xx flac 0.7485 CVB2012-01-13t13.flac
4:45.000 82080044 B cxx -- ---xx flac 0.7557 CVB2012-01-13t14.flac
4:58.000 85824044 B cxx -- ---xx flac 0.7753 CVB2012-01-13t15.flac
67:45.000 1170720660 B 0.7344 (15 files)

Reviews

There are no reviews yet. Be the first one to write a review.
PEOPLE ALSO FOUND
Camper Van Beethoven
by Camper Van Beethoven
410
0
0
Camper Van Beethoven
by Camper Van Beethoven
148
0
0
Source: soundboard > Sony D5 > TDK MA90 cassette master tape
Camper Van Beethoven
by Camper Van Beethoven
9,939
0
1
( 1 reviews )
Source: Sony ECM-717 > Sharp MD-MT190MD
Camper Van Beethoven
by Camper Van Beethoven
348
0
0
Source: audience > Sony WM-D6c > MCAS
Camper Van Beethoven
by Camper Van Beethoven
2,678
0
1
( 1 reviews )
Source: Sony ECM-717 > Sharp Minidisc MD-MT190
Camper Van Beethoven
by Camper Van Beethoven
1,416
1
0
Source: AT822 > D7(line in) > DATM
Camper Van Beethoven
by Camper Van Beethoven
1,883
2
0
Source: B&K 4011-> Lunatec V2-> Benchmark AD2K+ FOB
Camper Van Beethoven
by Camper Van Beethoven
1,215
1
0
Source: Audience recording > WAV
Camper Van Beethoven
by Camper Van Beethoven
1,559
1
0
Source: DPA 4061 > Sony PCM-D50 > WAV @48/24
Camper Van Beethoven
by Camper Van Beethoven
154
2
0
Source: AKG C568EB Hybrid Shotguns @ 48 volts > Monster Studio Grade XLR > Zoom H4: 48khz / 24 bit